<?xml version="1.0" encoding="UTF-8"?>
<!DOCTYPE svg PUBLIC "-//W3C//DTD SVG 1.1//EN" "http://www.w3.org/Graphics/SVG/1.1/DTD/svg11.dtd">
<!-- Creator: CorelDRAW X8 -->
<svg xmlns="http://www.w3.org/2000/svg" xml:space="preserve" id="svg_id" width="420mm" height="297mm" version="1.1" style="shape-rendering:geometricPrecision; text-rendering:geometricPrecision; image-rendering:optimizeQuality; fill-rule:evenodd; clip-rule:evenodd"
viewBox="0 0 42000 29700"
 xmlns:xlink="http://www.w3.org/1999/xlink">
 <defs>
  <font id="FontID2" horiz-adv-x="722" font-variant="normal" style="fill-rule:nonzero" font-style="normal" font-weight="700">
	<font-face 
		font-family="Arial">
		<font-face-src>
			<font-face-name name="Arial Bold"/>
		</font-face-src>
	</font-face>
   <missing-glyph><path d="M0 0z"/></missing-glyph>
   <glyph unicode="f" horiz-adv-x="333" d="M12.0026 519.004l76.002 0 0 39.1595c0,43.6641 4.66288,76.333 13.9886,97.8341 9.34015,21.6737 26.5093,39.1739 51.5075,52.6732 25.1709,13.4993 56.8324,20.3353 95.1716,20.3353 39.1595,0 77.657,-5.84299 115.334,-17.5002l-17.5002 -95.3443c-22.3358,5.16658 -43.8368,7.84342 -64.5031,7.84342 -20.3353,0 -34.8421,-4.67727 -43.6641,-14.003 -8.83644,-9.34015 -13.341,-27.3296 -13.341,-53.9973l0 -37.0008 103.001 0 0 -108.009 -103.001 0 0 -410.995 -136.994 0 0 410.995 -76.002 0 0 108.009z"/>
   <glyph unicode="c" horiz-adv-x="556" d="M523.998 365l-134.993 -24.0052c-4.50457,26.8403 -14.8377,47.003 -30.9995,60.675 -16.1762,13.4993 -37.0008,20.3353 -62.6754,20.3353 -34.1656,0 -61.4953,-11.8443 -81.8306,-35.5041 -20.3353,-23.6742 -30.4958,-63.1647 -30.4958,-118.673 0,-61.668 10.3332,-105.159 30.9995,-130.661 20.6663,-25.5019 48.327,-38.1665 82.9963,-38.1665 26.0056,0 47.334,7.49802 63.8411,22.3358 16.6655,14.8377 28.3227,40.3253 35.1587,76.664l135.008 -22.9978c-14.003,-61.999 -40.8433,-108.829 -80.5066,-140.505 -39.6632,-31.6615 -92.8402,-47.4923 -159.66,-47.4923 -75.671,0 -136.173,23.9908 -181.176,71.8285 -45.1608,47.996 -67.6693,114.327 -67.6693,199.165 0,85.8315 22.6668,152.508 67.842,200.331 45.1608,47.8377 106.325,71.6701 183.493,71.6701 63.0064,0 113.176,-13.672 150.507,-40.829 37.1591,-27.1713 63.8267,-68.504 80.1612,-124.171z"/>
   <glyph unicode="I" horiz-adv-x="277" d="M68.0003 0l0 715.996 144.995 0 0 -715.996 -144.995 0z"/>
   <glyph unicode="h" horiz-adv-x="610" d="M206.994 715.996l0 -265.323c44.4988,52.8315 97.8341,79.3265 159.675,79.3265 31.8342,0 60.5023,-5.8286 86.0042,-17.5002 25.4875,-11.8299 44.6571,-26.6676 57.6671,-45.0025 12.9956,-18.1622 21.8321,-38.3248 26.4949,-60.5023 4.83558,-22.1631 7.16701,-56.5014 7.16701,-103.001l0 -303.994 -137.008 0 0 273.671c0,54.3283 -2.66245,88.8249 -7.82903,103.49 -5.32489,14.6794 -14.665,26.3366 -27.9917,34.8421 -13.341,8.66374 -30.0065,12.9956 -50.1691,12.9956 -22.9978,0 -43.5058,-5.49759 -61.668,-16.6655 -18.1766,-10.9952 -31.3305,-27.6606 -39.6632,-49.9964 -8.50543,-22.1631 -12.679,-55.163 -12.679,-98.6688l0 -259.668 -136.994 0 0 715.996 136.994 0z"/>
   <glyph unicode="e" horiz-adv-x="556" d="M371.994 164.007l137.008 -23.0122c-17.5002,-50.1547 -45.3335,-88.3212 -83.169,-114.658 -37.9938,-26.1639 -85.5005,-39.3322 -142.333,-39.3322 -90.1633,0 -156.998,29.5028 -200.173,88.4939 -34.1656,47.334 -51.3204,107.002 -51.3204,179.175 0,85.9898 22.4941,153.486 67.3239,202.159 44.8298,48.8307 101.662,73.1669 170.339,73.1669 76.995,0 137.828,-25.5019 182.5,-76.5057 44.4988,-50.9894 65.8272,-129.165 63.8267,-234.497l-342.995 0c0.99302,-40.6706 12.0026,-72.3322 33.1582,-94.9989 21.0117,-22.6668 47.334,-33.9929 78.6789,-33.9929 21.501,0 39.4905,5.8286 53.9973,17.5002 14.665,11.6572 25.6602,30.4958 33.1582,56.5014zm8.00173 138.994c-0.99302,39.8359 -11.1679,70.159 -30.6685,90.8397 -19.5006,20.8246 -43.1604,31.1578 -71.1664,31.1578 -29.8338,0 -54.501,-10.9952 -73.9872,-32.8272 -19.5006,-21.8321 -29.0135,-51.6658 -28.6681,-89.1703l204.49 0z"/>
   <glyph unicode="b" horiz-adv-x="610" d="M65.9999 0l0 715.996 136.994 0 0 -258.329c42.3401,48.1687 92.3365,72.3322 150.335,72.3322 63.1791,0 115.334,-22.8395 156.667,-68.6623 41.3327,-45.8372 61.999,-111.664 61.999,-197.51 0,-88.6666 -20.9973,-156.998 -63.1647,-204.994 -42.1674,-47.8377 -93.5022,-71.8285 -153.659,-71.8285 -29.6755,0 -58.8328,7.65633 -87.6736,22.8251 -28.8264,15.3414 -53.6663,37.3318 -74.4909,66.3309l0 -76.1603 -127.006 0zm134.993 269.497c0,-53.8246 8.50543,-93.8332 25.5019,-119.493 23.8325,-36.6698 55.3357,-55.0047 94.8406,-55.0047 30.3375,0 56.1704,12.9956 77.6714,39.0012 21.3283,26.0056 31.9925,66.9929 31.9925,122.832 0,59.4949 -10.8369,102.339 -32.3379,128.661 -21.501,26.3366 -48.989,39.5049 -82.6653,39.5049 -32.9999,0 -60.3296,-12.8373 -82.1616,-38.4975 -21.8321,-25.6602 -32.8416,-64.6614 -32.8416,-117.004z"/>
   <glyph unicode="g" horiz-adv-x="610" d="M59.0055 -32.9999l156.998 -18.9969c2.66245,-18.5076 8.66374,-31.1722 17.9895,-38.1665 13.1683,-9.84385 33.6763,-14.8377 61.668,-14.8377 35.8351,0 62.6754,5.33928 80.6793,16.1618 11.9882,7.16701 21.1556,18.6659 27.3296,34.6694 4.15917,11.3406 6.3323,32.4962 6.3323,63.0064l0.662013 75.8293c-41.3327,-56.5014 -93.3295,-84.6658 -155.991,-84.6658 -69.6697,0 -125.005,29.5028 -165.676,88.3356 -31.9925,46.4992 -47.996,104.497 -47.996,173.663 0,86.9972 20.9973,153.328 62.8337,199.165 41.8364,45.8372 93.9915,68.835 156.336,68.835 64.1577,0 117.162,-28.1644 158.826,-84.4931l0 73.4979 127.999 0 0 -465.338c0,-61.1643 -4.99388,-107.002 -15.1687,-137.166 -9.98777,-30.3375 -24.1635,-53.9973 -42.4984,-71.3391 -18.1622,-17.1548 -42.4984,-30.8268 -72.9942,-40.4979 -30.4958,-9.82946 -69.0077,-14.665 -115.507,-14.665 -87.9902,0 -150.335,15.1687 -187.163,45.3335 -36.8281,30.3375 -55.163,68.504 -55.163,115.003 0,4.50457 0.158308,10.1605 0.503706,16.6655zm122.991 303.001c0,-55.0047 10.6642,-95.1716 31.8342,-120.674 21.3427,-25.4875 47.665,-38.3248 78.8372,-38.3248 33.3309,0 61.668,13.1683 84.6658,39.3322 23.1705,26.1639 34.6694,64.8341 34.6694,116.169 0,53.6663 -11.0096,93.5022 -33.1726,119.493 -21.9904,26.0056 -49.9964,39.0012 -83.831,39.0012 -32.8272,0 -59.8259,-12.8373 -81.1686,-38.3248 -21.17,-25.5019 -31.8342,-64.3448 -31.8342,-116.673z"/>
   <glyph unicode="d" horiz-adv-x="610" d="M548.003 0l-127.006 0 0 76.1603c-21.17,-29.6611 -46.3265,-51.8241 -75.1673,-66.8202 -28.8264,-14.8377 -57.9981,-22.3358 -87.3282,-22.3358 -59.8403,0 -111.002,23.9908 -153.673,72.1595 -42.4984,48.1687 -63.8267,115.176 -63.8267,201.338 0,88.0046 20.6663,154.997 62.1717,200.835 41.491,45.8228 93.8332,68.6623 157.156,68.6623 57.9981,0 108.34,-24.1635 150.666,-72.3322l0 258.329 137.008 0 0 -715.996zm-366.007 269.497c0,-55.494 7.67072,-95.6609 22.8395,-120.501 22.1631,-35.9934 53.0042,-53.9973 92.6675,-53.9973 31.5032,0 58.3291,13.4993 80.3339,40.4979 22.1631,26.9986 33.1582,67.1656 33.1582,120.832 0,59.8403 -10.6642,102.842 -32.1652,129.165 -21.501,26.3366 -48.8307,39.5049 -82.3343,39.5049 -32.4962,0 -59.6676,-12.9956 -81.6579,-39.0012 -21.8321,-25.9912 -32.8416,-64.8341 -32.8416,-116.5z"/>
   <glyph unicode="a" horiz-adv-x="556" d="M173.994 358.998l-123.998 22.0047c14.003,50.6584 38.1665,88.1629 72.3322,112.499 34.1656,24.3362 85.0112,36.4971 152.335,36.4971 61.1643,0 106.843,-7.16701 136.835,-21.6594 29.8338,-14.5067 51.0038,-32.8416 63.1647,-55.1774 12.1753,-22.3358 18.3349,-63.1647 18.3349,-122.832l-2.00043 -159.991c0,-45.5062 2.17313,-79.1682 6.505,-100.842 4.33187,-21.6594 12.4919,-44.8298 24.4945,-69.497l-136.001 0c-3.49716,8.99475 -8.00173,22.3358 -13.1683,39.9942 -2.15874,8.17443 -3.82816,13.4993 -4.83558,16.0035 -23.3288,-22.9978 -48.327,-40.1669 -74.9946,-51.6658 -26.6676,-11.4989 -55.0047,-17.3275 -85.1695,-17.3275 -53.1626,0 -95.1572,14.4923 -125.826,43.4914 -30.6685,28.8408 -46.0099,65.5105 -46.0099,109.837 0,29.1718 7.00871,55.3357 21.0117,78.3335 13.9886,22.8395 33.4892,40.4979 58.8328,52.6732 25.1565,12.1609 61.4953,22.8251 109.002,31.9925 63.9994,12.0026 108.498,23.3288 133.165,33.6619l0 13.8447c0,26.6676 -6.505,45.6645 -19.5006,57.1634 -13.1683,11.3262 -37.8355,16.9965 -74.0016,16.9965 -24.5089,0 -43.5058,-4.83558 -57.1634,-14.665 -13.8447,-9.67115 -24.8399,-26.8403 -33.3453,-51.3348zm184.011 -111.002c-17.5002,-5.8286 -45.3335,-12.8229 -83.5,-20.9973 -38.0082,-8.16003 -63.0064,-16.1618 -74.678,-23.8325 -17.8312,-12.8373 -26.8259,-28.8264 -26.8259,-48.327 0,-19.3423 7.16701,-35.8351 21.501,-49.8381 14.334,-14.003 32.4962,-20.9973 54.6593,-20.9973 24.6672,0 48.3414,8.16003 70.8354,24.3362 16.5072,12.4919 27.5023,27.4879 32.6689,45.4918 3.49716,11.6716 5.33928,34.0073 5.33928,66.8346l0 27.3296z"/>
  </font>
  <font id="FontID1" horiz-adv-x="666" font-variant="normal" style="fill-rule:nonzero" font-style="normal" font-weight="400">
	<font-face 
		font-family="Arial">
		<font-face-src>
			<font-face-name name="Arial"/>
		</font-face-src>
	</font-face>
   <missing-glyph><path d="M0 0z"/></missing-glyph>
   <glyph unicode="&quot;" horiz-adv-x="354" d="M70.3234 462.996l-24.3309 135.993 0 117.001 100.017 0 0 -117.001 -22.0159 -135.993 -53.6697 0zm161.505 0l-23.8348 135.993 0 117.001 100.017 0 0 -117.001 -23.5041 -135.993 -52.6776 0z"/>
   <glyph unicode="3" horiz-adv-x="556" d="M42.0003 189.994l87.9928 12.0001c10.1812,-49.9846 27.1656,-85.9849 51.3311,-108.001 24.1655,-21.9923 53.8351,-33.0003 89.0086,-33.0003 41.6696,0 76.8431,14.3387 105.166,43.0161 28.3231,28.6538 42.4964,64.158 42.4964,106.489 0,40.3468 -13.1576,73.6777 -39.6617,99.9929 -26.3388,26.1734 -59.8351,39.331 -100.678,39.331 -16.6537,0 -37.3231,-3.33073 -62.1501,-9.82685l9.82685 77.0085c5.83469,-0.661423 10.6772,-0.992134 14.1733,-0.992134 37.6538,0 71.3391,9.82685 101.505,29.3152 30.0002,19.512 45.0004,49.5122 45.0004,90.0007 0,32.1735 -11.008,58.843 -32.8349,80.0085 -21.8506,21.1655 -50.0083,31.6538 -84.5204,31.6538 -34.3231,0 -62.8115,-10.819 -85.6542,-32.4806 -22.8427,-21.6852 -37.5121,-54.1658 -44.0082,-97.5126l-87.9928 15.9923c10.8426,59.0083 35.1735,104.835 73.3234,137.34 38.0082,32.5042 85.5125,48.6618 142.182,48.6618 39.0003,0 75.0006,-8.31503 107.835,-25.1577 33.0003,-16.6773 58.1579,-39.4964 75.4967,-68.3391 17.5041,-28.9845 26.1734,-59.6698 26.1734,-92.1503 0,-30.8506 -8.33865,-58.843 -24.8506,-84.166 -16.6537,-25.3467 -41.3389,-45.52 -73.8195,-60.5202 42.331,-9.66149 75.1659,-30.0002 98.6701,-60.8273 23.3151,-30.6617 34.9845,-69.3313 34.9845,-115.489 0,-62.5044 -22.8191,-115.678 -68.3391,-159.167 -45.6618,-43.5122 -103.324,-65.1737 -172.986,-65.1737 -62.8351,0 -114.993,18.8269 -156.497,56.339 -41.6696,37.4885 -65.3391,85.9849 -71.1738,145.655z"/>
   <glyph unicode="8" horiz-adv-x="556" d="M177.497 388.161c-36.4964,13.3466 -63.4966,32.5042 -81.166,57.1658 -17.5041,24.8506 -26.3388,54.4965 -26.3388,89.0086 0,52.1579 18.6852,95.8354 56.0083,131.34 37.4885,35.4806 87.166,53.3154 149.34,53.3154 62.3155,0 112.654,-18.1655 150.663,-54.4965 38.0082,-36.331 57.0004,-80.5046 57.0004,-132.662 0,-33.1656 -8.66936,-62.1737 -26.0081,-86.67 -17.3387,-24.6616 -43.6539,-43.6539 -79.1581,-57.0004 43.8192,-14.3387 76.9849,-37.3231 99.8276,-69.3313 22.8427,-31.8191 34.3231,-69.8273 34.3231,-114.166 0,-61.158 -21.6616,-112.489 -64.8194,-154.159 -43.3468,-41.6696 -100.158,-62.5044 -170.671,-62.5044 -70.4887,0 -127.324,20.8348 -170.671,62.6698 -43.1578,41.835 -64.8194,93.9929 -64.8194,156.497 0,46.4886 11.8347,85.4889 35.4806,116.836 23.6695,31.4884 57.3548,52.8193 101.009,64.158zm-17.5041 149.34c0,-33.9924 10.8426,-61.6777 32.3388,-83.1739 21.6616,-21.4962 50.0083,-32.3152 85.1582,-32.3152 34.1814,0 61.843,10.6536 83.3392,31.9845 21.4962,21.3309 32.1735,47.5043 32.1735,78.4967 0,32.3388 -11.008,59.5044 -33.1656,81.4967 -22.0159,22.0159 -49.8429,33.0003 -83.3392,33.0003 -33.827,0 -61.654,-10.819 -83.67,-32.3152 -21.8269,-21.4962 -32.8349,-47.1736 -32.8349,-77.1738zm-28.9845 -330.995c0,-25.1813 5.83469,-49.3468 17.4805,-72.8273 11.6694,-23.3388 29.3388,-41.5043 53.0083,-54.3548 23.5041,-12.8269 48.8272,-19.323 75.662,-19.323 42.331,0 77.0085,13.4883 104.174,40.4885 27.1656,27.0002 40.6775,61.3469 40.6775,103.017 0,42.331 -14.008,77.3392 -41.835,105.001 -28.016,27.6616 -63.3312,41.5043 -105.851,41.5043 -41.6696,0 -75.8274,-13.6773 -102.828,-41.0082 -27.0002,-27.3309 -40.4885,-61.5123 -40.4885,-102.497z"/>
   <glyph unicode="5" horiz-adv-x="556" d="M42.0003 188.009l92.0086 6.99218c6.82683,-44.835 22.6537,-78.4967 47.3153,-101.174 24.6852,-22.4884 54.8508,-33.827 90.3314,-33.827 42.8507,0 78.6857,15.9923 107.835,47.835 29.0081,32.0081 43.5122,74.3392 43.5122,126.993 0,50.1736 -13.8426,89.67 -41.6696,118.678 -27.827,28.9845 -64.6777,43.4885 -110.505,43.4885 -28.4884,0 -54.0004,-6.49611 -76.6541,-19.4883 -22.512,-13.0159 -40.1814,-29.8349 -53.1736,-50.5043l-83.0085 12.0001 69.0005 367.987 355.019 0 0 -84.0007 -284.837 0 -38.1735 -193.159c42.8271,30.1656 87.8275,45.1657 134.836,45.1657 62.3391,0 114.993,-21.6616 157.82,-64.9848 42.8507,-43.3468 64.347,-99.0008 64.347,-167.009 0,-64.843 -18.8269,-120.828 -56.5044,-168.001 -45.8271,-57.9926 -108.497,-87.0007 -187.844,-87.0007 -64.9848,0 -117.993,18.3309 -159.167,54.8272 -41.1499,36.4964 -64.6541,84.8511 -70.4887,145.182z"/>
   <glyph unicode="2" horiz-adv-x="556" d="M502.988 84.0007l0 -84.0007 -473.98 0c-0.685045,21.1655 2.83467,41.5043 10.3229,61.158 12.1655,32.1735 31.6774,64.0163 58.5123,95.174 26.8349,31.1577 65.1501,67.158 114.993,108.001 77.5045,63.8273 130.159,114.332 157.655,151.678 27.6853,37.3231 41.5043,72.662 41.5043,105.993 0,34.8192 -12.4962,64.158 -37.4885,88.1582 -25.0159,23.8348 -57.6619,35.8349 -97.8433,35.8349 -42.4964,0 -76.4888,-12.6615 -102.001,-38.0082 -25.4884,-25.1577 -38.3389,-60.1658 -38.6696,-105.001l-90.0007 9.00007c6.1654,67.347 29.5042,118.678 69.8509,154.017 40.4885,35.3389 94.6543,52.9847 162.828,52.9847 68.6698,0 123.166,-18.9923 163.159,-57.1658 40.1814,-38.1499 60.1658,-85.4889 60.1658,-141.828 0,-28.6538 -5.83469,-56.8351 -17.6694,-84.4967 -11.6694,-27.827 -31.1577,-57.0004 -58.3233,-87.6621 -27.3309,-30.4963 -72.4966,-72.662 -135.497,-126.001 -52.8429,-44.3389 -86.8353,-74.3392 -101.835,-90.1661 -15.0001,-15.8269 -27.3309,-31.6774 -37.1814,-47.6697l351.499 0z"/>
   <glyph unicode="." horiz-adv-x="277" d="M90.9928 0l0 99.9929 100.017 0 0 -99.9929 -100.017 0z"/>
   <glyph unicode="9" horiz-adv-x="556" d="M54.9926 165.993l84.0007 7.0158c7.18116,-39.6854 20.8348,-68.3391 41.0082,-86.1739 20.1734,-17.8348 45.9925,-26.8349 77.6699,-26.8349 27.0002,0 50.6697,6.1654 71.1738,18.6616 20.4805,12.3308 37.1578,28.8427 49.9846,49.6776 12.8269,20.6695 23.6695,48.6618 32.5042,83.8353 8.83472,35.1499 13.1576,70.9848 13.1576,107.481 0,3.85042 -0.165356,9.85047 -0.496067,17.6694 -17.5041,-27.9923 -41.5043,-50.835 -71.8352,-68.1501 -30.3309,-17.5041 -63.3312,-26.1734 -98.6701,-26.1734 -59.1501,0 -109.158,21.4962 -150.167,64.4887 -40.8192,42.8507 -61.3233,99.5205 -61.3233,169.844 0,72.662 21.3309,131.009 64.158,175.324 42.6854,44.1736 96.1661,66.3312 160.678,66.3312 46.3232,0 88.8196,-12.4962 127.489,-37.6538 38.5042,-24.9923 67.6777,-60.6619 87.6857,-107.174 19.9844,-46.3232 29.9766,-113.505 29.9766,-201.332 0,-91.4889 -9.82685,-164.34 -29.6459,-218.506 -19.8427,-54.3311 -49.5122,-95.4811 -88.6779,-123.828 -39.1657,-28.3231 -84.9928,-42.4964 -137.67,-42.4964 -55.9847,0 -101.67,15.4962 -137.151,46.6775 -35.3389,31.1577 -56.6697,75.0006 -63.8509,131.316zm359.011 315.829c0,50.339 -13.3466,90.355 -39.9924,119.836 -26.5041,29.5042 -58.843,44.3389 -96.8512,44.3389 -39.331,0 -73.3234,-15.8269 -102.001,-47.6697 -28.8191,-31.8191 -43.1578,-73.1581 -43.1578,-123.828 0,-45.4964 13.6773,-82.4888 40.8428,-110.836 27.3309,-28.4884 61.3233,-42.6618 101.812,-42.6618 40.6775,0 74.0085,14.1733 100.182,42.6618 26.1734,28.3467 39.1657,67.8431 39.1657,118.158z"/>
   <glyph unicode="6" horiz-adv-x="556" d="M498.996 540.996l-87.0007 -6.99218c-7.81896,34.4885 -18.9923,59.6698 -33.4963,75.3313 -23.8348,25.1577 -53.339,37.6538 -88.3235,37.6538 -28.1813,0 -53.1736,-7.81896 -74.6699,-23.4805 -27.6616,-20.1734 -49.3468,-49.5122 -65.5045,-88.1818 -15.9923,-38.835 -24.3309,-93.9929 -24.9923,-165.497 21.1655,32.1735 47.15,56.1737 77.8353,71.6699 30.6617,15.6615 62.6462,23.5041 96.3315,23.5041 58.654,0 108.662,-21.6616 150.001,-64.843 41.1499,-43.1578 61.8194,-98.8354 61.8194,-167.316 0,-45.0004 -9.66149,-86.67 -28.9845,-125.34 -19.512,-38.6696 -46.0161,-68.1738 -80.0085,-88.6779 -33.827,-20.5041 -72.3313,-30.827 -115.347,-30.827 -73.1581,0 -132.993,27.0002 -179.316,80.8353 -46.1815,53.8351 -69.3313,142.655 -69.3313,266.341 0,138.332 25.6537,238.986 76.8195,301.821 44.6696,54.6618 104.835,81.9928 180.663,81.9928 56.339,0 102.686,-15.8269 138.686,-47.3153 36.0003,-31.5121 57.6619,-75.0006 64.8194,-130.678zm-360.003 -309.002c0,-30.3309 6.49611,-59.339 19.3466,-87.0007 12.8269,-27.6616 30.827,-48.6618 53.6697,-63.1659 22.9844,-14.5041 47.3153,-21.8269 73.1581,-21.8269 37.4885,0 69.4966,15.0001 96.0008,45.0004 26.5041,30.0002 39.8271,70.6541 39.8271,122.174 0,49.4886 -13.1576,88.4889 -39.331,117.001 -26.1734,28.4884 -59.5044,42.8271 -99.9929,42.8271 -39.6617,0 -73.5124,-14.3387 -101.174,-42.8271 -27.6616,-28.512 -41.5043,-65.8352 -41.5043,-112.182z"/>
  </font>
  <font id="FontID0" horiz-adv-x="737" font-variant="normal" style="fill-rule:nonzero" font-style="normal" font-weight="400">
	<font-face 
		font-family="Montserrat">
		<font-face-src>
			<font-face-name name="Montserrat Regular"/>
		</font-face-src>
	</font-face>
   <missing-glyph><path d="M0 0z"/></missing-glyph>
   <glyph unicode="3" horiz-adv-x="616" d="M330.991 406.334l-40.9816 2.99668 224.994 216.672 0 74.0058 -460.011 0 1.01239 -105.005 311.999 0 -205.009 -196.667 0 -68.1745 102.009 0c106.99,0 170.001,-38.9973 170.001,-115.17 0,-72.9934 -61.9989,-121.001 -167.996,-121.001 -71.0092,0 -141.998,26.0185 -197.011,73.0137l-48.9998 -95.995c64.0034,-46.0031 161.011,-76.0104 254.009,-76.0104 168.988,0 274.986,90.9938 274.986,221.997 0,111.161 -87.9971,178.343 -219.001,189.337z"/>
   <glyph unicode="f" horiz-adv-x="342" d="M293.006 646.999c23.9937,0 50.984,-8.99004 72.9934,-25.0061l43.9985 87.9971c-33.9961,25.0061 -77.0025,37.013 -119.989,37.013 -92.0062,0 -183,-59.0022 -183,-183l0 -51.9964 -70.017 0 0 -86.0128 70.017 0 0 -425.994 113.995 0 0 425.994 139.001 0 0 86.0128 -139.001 0 0 62.991c0,50.0121 33.004,72.0013 72.0013,72.0013z"/>
   <glyph unicode="c" horiz-adv-x="564" d="M459.99 375.01l63.0113 73.9856c-48.9998,56.0055 -123.998,87.0049 -219.993,87.0049 -158.014,0 -268,-110.006 -268,-270.997 0,-159.998 109.986,-269.013 268,-269.013 100.996,0 177.999,36.0006 225.986,99.0119l-64.0034 64.0034c-36.0006,-42.0143 -89.9814,-64.0034 -156.981,-64.0034 -92.0062,0 -158.014,69.0046 -158.014,170.001 0,100.996 66.0079,170.001 158.014,170.001 63.9832,0.992144 114.987,-22.0094 151.98,-59.9943z"/>
   <glyph unicode="-" horiz-adv-x="368" d="M61.0067 343.99l0 -78.9868 245.991 0 0 78.9868 -245.991 0z"/>
   <glyph unicode="h" horiz-adv-x="669" d="M402 536.001c-90.9938,0 -159.006,-33.004 -196.991,-108.002l0 314.003 -115.008 0 0 -742.002 115.008 0 0 262.007c0,93.9904 56.9977,165 152,165.992 79.9992,0 127.987,-48.9998 127.987,-128.999l0 -299 115.008 0 0 330.991c0,127.015 -74.0058,205.009 -198.004,205.009z"/>
   <glyph unicode="5" horiz-adv-x="616" d="M198.996 443.002l0 152 335 0 0 105.997 -443.994 0 0 -371.001c49.9919,5.99336 147.991,10.0024 193.002,10.0024 95.995,0 154.997,-43.9985 154.997,-116 0,-77.9947 -59.0022,-126.002 -157.002,-126.002 -66.0079,0 -139.001,27.0106 -198.004,74.0058l-47.9874 -96.0152c72.0013,-47.9874 172.997,-79.9992 258.99,-79.9992 164.007,0 270.005,93.0185 270.005,236.009 0,121.993 -102.009,211.995 -260.995,211.995 -27.0106,0 -73.0137,0 -104.013,-0.992144z"/>
   <glyph unicode="e" horiz-adv-x="587" d="M304.001 536.001c-157.994,-0.992144 -268.992,-110.006 -268.992,-270.997 0,-159.998 107.982,-269.013 271.989,-269.013 92.0062,0 167.996,33.004 219.993,90.0016l-60.9865 65.0158c-38.9973,-40.0097 -92.0062,-61.9989 -149.996,-61.9989 -84.0083,0 -146.999,50.984 -165,132.988l402 0c13.9913,192.01 -61.9989,314.003 -249.008,314.003zm-154.997 -229.995c11.9867,85.0004 72.0013,137.989 155.989,137.989 87.0049,0 144.003,-51.9964 148.012,-137.989l-304.001 0z"/>
   <glyph unicode="2" horiz-adv-x="616" d="M319.005 363.003l-267.008 -275.998 0 -87.0049 512.999 0 0 105.997 -358.002 0 192.01 193.994c77.0025,79.9992 131.996,159.006 131.996,229.003 0,108.002 -92.9983,177.007 -229.995,177.007 -92.0062,0 -183,-38.0052 -260.995,-100.004l47.9874 -90.9938c59.9943,54.001 134,87.0049 197.011,87.0049 76.9823,0 122.985,-33.004 122.985,-90.0016 0,-40.0097 -36.0006,-96.0152 -88.9892,-149.004z"/>
   <glyph unicode="b" horiz-adv-x="680" d="M391.006 536.001c-82.9959,0 -146.999,-33.9961 -185.997,-95.995l0 301.996 -115.008 0 0 -742.002 115.008 0 0 92.0062c38.9973,-61.9989 103.001,-96.0152 187.981,-96.0152 152,0 252.005,109.014 252.005,268 0,162.003 -103.001,272.009 -253.989,272.009zm-24.0139 -442.01c-94.9826,0 -161.983,71.0092 -161.983,174.01 0,100.004 67.0001,172.005 161.983,172.005 95.0028,0 162.003,-73.0137 162.003,-172.005 0,-102.009 -67.0001,-174.01 -162.003,-174.01z"/>
   <glyph unicode="=" horiz-adv-x="497" d="M35.0085 469.001l0 -79.007 427.999 0 0 79.007 -427.999 0zm0 -210.011l0 -78.9868 427.999 0 0 78.9868 -427.999 0z"/>
   <glyph unicode="7" horiz-adv-x="616" d="M48.1696 701l0 -203.997 105.167 0 0.992144 97.9995 296.003 0 -288.997 -595.003 124.99 0 295.011 610.999 0 90.0016 -533.166 0z"/>
   <glyph unicode="4" horiz-adv-x="616" d="M278.995 701l-244.999 -440.998 0 -87.9971 341.014 0 0 -172.005 109.986 0 0 172.005 104.013 0 0 105.997 -103.001 0 -1.01239 165 -109.986 0 0.992144 -165 -215.012 0 232 422.997 -113.995 0z"/>
   <glyph unicode="d" horiz-adv-x="682" d="M476.998 742.002l0 -301.996c-38.9973,61.9989 -103.001,96.9871 -188.993,96.9871 -149.996,0 -252.997,-108.994 -252.997,-268.992 0,-162.003 101.988,-273.002 255.001,-273.002 85.0004,0 148.984,33.9961 186.989,95.995l0 -90.9938 115.008 0 0 742.002 -115.008 0zm-162.995 -651.008c-97.0074,0 -162.995,72.0013 -164.007,172.997 1.01239,102.009 68.0125,175.002 164.007,175.002 95.995,0 162.995,-72.0013 162.995,-175.002 0,-100.996 -67.0001,-172.997 -162.995,-172.997z"/>
   <glyph unicode="1" horiz-adv-x="616" d="M105.997 701l0 -105.997 151.008 0 0 -595.003 118.004 0 0 701 -269.013 0z"/>
   <glyph unicode=" " horiz-adv-x="299" d=""/>
   <glyph unicode="." horiz-adv-x="218" d="M108.994 123.006c-36.0006,0 -62.991,-27.0106 -62.991,-64.9955 0,-39.0176 26.9904,-67.0001 62.991,-67.0001 36.0006,0 63.0113,27.9825 63.0113,67.0001 0,37.9849 -27.0106,64.9955 -63.0113,64.9955z"/>
   <glyph unicode="a" horiz-adv-x="585" d="M517.332 0l-0.992144 348.992c-1.01239,117.012 -78.1769,187.009 -215.336,187.009 -100.996,0 -154.997,-23.0015 -229.003,-67.0001l46.9952 -79.9992c53.0088,36.0006 105.997,54.001 157.002,54.001 84.1702,0 127.177,-40.0097 127.177,-107.01l0 -15.9958 -161.173 0c-128.007,-0.992144 -201,-62.991 -201,-159.998 0,-93.9904 72.0013,-165 186.989,-165 77.0025,0 138.171,23.0015 176.176,69.9968l0 -64.9955 113.165 0zm-265.328 85.9925c-64.0034,0 -103.001,30.9994 -103.001,79.007 0,51.0043 34.9883,71.0092 109.986,71.0092l144.185 0 0 -48.9998c-6.01361,-58.01 -69.0046,-101.016 -151.17,-101.016z"/>
   <glyph unicode="9" horiz-adv-x="616" d="M107.01 136.997l-46.0031 -88.9892c56.9977,-32.0118 139.001,-53.0088 207.986,-53.0088 184.012,0 301.004,146.007 301.004,370.009 0,214.991 -108.002,340.994 -283.996,340.994 -147.991,0 -244.999,-90.0016 -244.999,-234.996 0,-136.005 85.0004,-224.002 224.002,-224.002 87.9971,0 152.993,33.9961 190.006,100.004 3.98882,-152 -59.0022,-254.009 -194.015,-254.009 -52.9886,0 -110.999,15.9958 -153.985,43.9985zm184.984 468.008c100.996,0 145.015,-69.9968 144.003,-131.003 1.01239,-72.0013 -54.001,-134 -149.004,-134 -83.988,0 -135.984,49.9919 -135.984,129.991 0,85.0004 56.9977,135.013 140.986,135.013z"/>
  </font>
</defs>
</svg>
